Browntracker

Donate to Browntracker

Search: in including dead torrents

Browntracker is the official recording community and trading site of the band Ween!
Bringing you live performance audio & video, rarities and B-sides since 2004.

The Night They Drove Ol' Dixie Down Levon Helm Tribute Brooklyn Bowl Brooklyn, New York 6/4/2012

Downloadlevon2012-06-04.flac16.torrent
Info hash46f752106e896cdaf5590157b2c8a6fdb5a0d242
DescriptionThe Night They Drove Ol' Dixie Down
Levon Helm Tribute
Brooklyn Bowl
Brooklyn, New York
6/4/2012

Source: Schoeps CCM4V'S(din)>Lunatec V2>Benchmark AD2K>
Sound Devices 722 (24/48)
FOB/DLFC/KFC/ZFC/AARP 18' From Stage, 10' High
DSP: Sound Devices 722>Sound Forge 9.0>CD Wave>flac(16)
Recorded By: Z-Man
Seeded By: Z-Man

Disc I

01 Ophelia
02 Slippin' And Slidin'
03 Goin' Back To Memphis
04 Ain't No More Cane
05 Lookout Cleveland
06 Jemina Surrender >
07 Yazoo Street Scandal
08 When I Paint My Masterpiece
09 Evangeline
10 Whispering Pines
11 Dirt Farmer
12 Don't Ya Tell
13 Don't Do It
14 Up On Cripple Creek
15 W.S. Walcott's Medicine Show
16 Rag Mama Rag

Disc II

01 Dixie
02 King Harvest
03 Anna Lee
04 Take Me Down
05 Long Black Veil
06 I Ain't Got No Home In This World Anymore
07 Mystery Train
08 Rock And Roll Shoes
09 Deep Elem Blues
10 The Shape I'm In
11 I Shall Be Released
12 The Weight

There was a rotating cast of Musicians. An amazing performance by all. Some of the Musicians
that I can recall are: Marco Benevito, Joe Russo, Jim Weider, Scott Metzger, Jason Crosby, Brian
Mitchell, Grayson Capps, Nicole Atkins Kelli Scarr, Ian Felice, Dave Drewitz, Chris Harford,
Leah Siegel, Jonah Smith, Nate Martinez, Sam Cohen, Luke Rathborne, and More.

Flac Fingerprint

levon2012-06-04d01t01.flac:33b4070955cc13a24c6631273f8eea74
levon2012-06-04d01t02.flac:9ae3b2264a514714ebeb0a742c4a656c
levon2012-06-04d01t03.flac:2a3abcab516a00c3dfc47360359e75e9
levon2012-06-04d01t04.flac:8062a0fd15027d1aa9a102eeb11c2d33
levon2012-06-04d01t05.flac:3269fec1fba847ca400031b1a1e6eff6
levon2012-06-04d01t06.flac:a4bc57a3ff305dcf7d5c8339b0b7bad3
levon2012-06-04d01t07.flac:682d7520e444ef9f480238f4e5c647e5
levon2012-06-04d01t08.flac:c74890e3bd2bd3d112700972f43285f6
levon2012-06-04d01t09.flac:5cc2140543343aee5cf877d5e0049fb8
levon2012-06-04d01t10.flac:1dd989037dcb521962962ce32f22ef46
levon2012-06-04d01t11.flac:e0f60649354634433f907bbbe51893df
levon2012-06-04d01t12.flac:671647291fd88c30fe6397ae360534a1
levon2012-06-04d01t13.flac:f6ac82ccdc75346db3c344d44f83847c
levon2012-06-04d01t14.flac:91ff1259c665650255bd01d35e0740cc
levon2012-06-04d01t15.flac:293b43fa4af2076406174e0f5da51e4c
levon2012-06-04d01t16.flac:022c3acc2bbfc1f3d10719f738cbd89d
levon2012-06-04d02t01.flac:815c555c2357b15677cf209156162efd
levon2012-06-04d02t02.flac:9af449186df4601cc079559bf9032e56
levon2012-06-04d02t03.flac:6850c90674296da21badf124752c0e00
levon2012-06-04d02t04.flac:d9ef220ed8de98951f732646f3615dcf
levon2012-06-04d02t05.flac:2c5a03fe68d03fab32ec5f15507748bb
levon2012-06-04d02t06.flac:dec1cc0e6ac71b39ba9297af7d3fe143
levon2012-06-04d02t07.flac:5ed59f11cce71f87f18a92f140d39b2a
levon2012-06-04d02t08.flac:677c919cc39c1eb53ce72d9e4eb08bfe
levon2012-06-04d02t09.flac:584c22a4bf3ac7a890e8c781af2944ed
levon2012-06-04d02t10.flac:a670d09153303c2f8bb92edb6f45b465
levon2012-06-04d02t11.flac:1927aef348d50c213be54b14f0fd5898
levon2012-06-04d02t12.flac:3204ffbdc80ffe0c400c46a6cae93f3c

Shntool

    length    expanded size    cdr  WAVE problems  fmt  ratio  filename
    3:41.68      39144380 B  ---  --  ---xx  flac  0.5440  levon2012-06-04d01t01.flac
    4:58.09      52588412 B  ---  --  ---xx  flac  0.5078  levon2012-06-04d01t02.flac
    4:54.02      51866348 B  ---  --  ---xx  flac  0.5267  levon2012-06-04d01t03.flac
    4:29.54      47578652 B  ---  --  ---xx  flac  0.4943  levon2012-06-04d01t04.flac
    4:23.29      46461452 B  ---  --  ---xx  flac  0.4989  levon2012-06-04d01t05.flac
    3:28.40      36785324 B  ---  --  ---xx  flac  0.5662  levon2012-06-04d01t06.flac
    5:32.34      58644812 B  ---  --  ---xx  flac  0.5047  levon2012-06-04d01t07.flac
    5:26.22      57558188 B  ---  --  ---xx  flac  0.4656  levon2012-06-04d01t08.flac
    4:58.05      52579004 B  ---  --  ---xx  flac  0.4472  levon2012-06-04d01t09.flac
    5:41.38      60241820 B  ---  --  ---xx  flac  0.4139  levon2012-06-04d01t10.flac
    4:34.34      48413612 B  ---  --  ---xx  flac  0.4703  levon2012-06-04d01t11.flac
    4:18.19      45555932 B  ---  --  ---xx  flac  0.4810  levon2012-06-04d01t12.flac
    4:51.15      51367724 B  ---  --  ---xx  flac  0.5327  levon2012-06-04d01t13.flac
    5:00.09      52941212 B  ---  --  ---xx  flac  0.5043  levon2012-06-04d01t14.flac
    5:05.08      53820860 B  ---  --  ---xx  flac  0.5018  levon2012-06-04d01t15.flac
    4:14.44      44909132 B  ---  --  ---xx  flac  0.5366  levon2012-06-04d01t16.flac
    6:26.46      68198636 B  ---  --  ---xx  flac  0.4775  levon2012-06-04d02t01.flac
    6:13.38      65886620 B  ---  --  ---xx  flac  0.4489  levon2012-06-04d02t02.flac
    4:50.08      51174860 B  ---  --  ---xx  flac  0.3897  levon2012-06-04d02t03.flac
    6:21.23      67262540 B  ---  --  ---xx  flac  0.4231  levon2012-06-04d02t04.flac
    3:28.62      36837068 B  ---  --  ---xx  flac  0.4703  levon2012-06-04d02t05.flac
    6:58.00      73735244 B  ---  --  ---xx  flac  0.4542  levon2012-06-04d02t06.flac
    10:16.19      108707132 B  ---  --  ---xx  flac  0.5127  levon2012-06-04d02t07.flac
    4:59.27      52807148 B  ---  --  ---xx  flac  0.4785  levon2012-06-04d02t08.flac
    7:22.25      78027644 B  ---  --  ---xx  flac  0.5246  levon2012-06-04d02t09.flac
    5:44.70      60846284 B  ---  --  ---xx  flac  0.5216  levon2012-06-04d02t10.flac
    5:05.34      53882012 B  ---  --  ---xx  flac  0.4503  levon2012-06-04d02t11.flac
    6:39.54      70510652 B  ---  --  ---xx  flac  0.5297  levon2012-06-04d02t12.flac
  150:04.11    1588332704 B                            0.4874  (28 files)













TypeWeen Misc.
Last seederLast activity 18:27 ago
Size738.31 MB (774,176,462 bytes)
Added2012-06-06 02:49:16
Views1453
Hits83
Snatched53 time(s)
Upped bykingkita
Num files
[See full list]
29 files
Peers2 seeder(s), 0 leecher(s) = 2 peer(s) total

2 comments for this torrent.
Log in to see torrent comments